Autore Topic: Prison School - Live Action (2015) HD 720p AAC JAP Sub ITA  (Letto 387 volte)

0 Utenti e 1 Visitatore stanno visualizzando questo topic.

Offline Zero

  • Uploader
  • Hero Member
  • *
  • Post: 998
  • Karma: +0/-0
Prison School - Live Action (2015) HD 720p AAC JAP Sub ITA
« il: Giugno 12, 2020, 01:22:40 pm »


Un dorama basato sulla serie, prodotto dallo studio Robot e diretto da Noboru Iguchi, è stato annunciato nell'agosto 2015. Il live action è andato in onda sulle televisioni giapponesi dal 25 ottobre al 20 dicembre 2015 per un totale di nove episodi.

Trama
Lo storico istituto scolastico femminile Hachimitsu è conosciuto come uno tra i migliori e più severi, specie nelle regole che riguardano i rapporti con l'altro sesso. Tuttavia, ha deciso di accogliere per la prima volta anche degli studenti maschi: cinque "eletti" circondati da oltre duecento ragazze! Cotanta gioia dura giusto il tempo di un battito di ciglia, perché un implacabile consiglio clandestino di studentesse li tiene sotto tiro. Ecco quindi che i cinque prodi arriveranno ben presto in una prigione celata nei sotterranei della scuola, dove ad attenderli ci saranno i capi del comitato... ovvero nient'altro che delle carceriere sexy e disinibite, pronte a far subire loro le peggiori sevizie e umiliazioni psicologiche e sessuali.

Titolo originale  Kangoku Gakuen
Titolo inglese  Prison School Live Action
Nazionalità  Giappone
Categoria  Serie TV
Genere  Commedia  Ecchi  Scolastico  Sentimentale
Anno  2015
Episodi  9

Report
Spoiler for Hiden:
General
Complete name                            : PrisonSchool_Live_Action_01_SUB_ITA.mp4
Format                                   : MPEG-4
Format profile                           : Base Media
Codec ID                                 : isom (isom/iso2/avc1/mp41)
File size                                : 284 MiB
Duration                                 : 24 min 5 s
Overall bit rate mode                    : Variable
Overall bit rate                         : 1 650 kb/s
Writing application                      : Lavf56.40.100

Video
ID                                       : 1
Format                                   : AVC
Format/Info                              : Advanced Video Codec
Format profile                           : Main@L4
Format settings                          : CABAC / 5 Ref Frames
Format settings, CABAC                   : Yes
Format settings, Reference frames        : 5 frames
Codec ID                                 : avc1
Codec ID/Info                            : Advanced Video Coding
Duration                                 : 24 min 5 s
Bit rate                                 : 1 534 kb/s
Width                                    : 1 280 pixels
Height                                   : 720 pixels
Display aspect ratio                     : 16:9
Frame rate mode                          : Variable
Frame rate                               : 23.976 FPS
Minimum frame rate                       : 23.810 FPS
Maximum frame rate                       : 24.390 FPS
Color space                              : YUV
Chroma subsampling                       : 4:2:0
Bit depth                                : 8 bits
Scan type                                : Progressive
Bits/(Pixel*Frame)                       : 0.069
Stream size                              : 264 MiB (93%)
Writing library                          : x264 core 144 r2533 c8a773e
Encoding settings                        : cabac=1 / ref=5 / deblock=1:-1:-1 / analyse=0x1:0x111 / me=umh / subme=8 / psy=1 / psy_rd=1.00:0.15 / mixed_ref=1 / me_range=16 / chroma_me=1 / trellis=1 / 8x8dct=0 / cqm=0 / deadzone=21,11 / fast_pskip=1 / chroma_qp_offset=-3 / threads=3 / lookahead_threads=1 / sliced_threads=0 / nr=0 / decimate=1 / interlaced=0 / bluray_compat=0 / constrained_intra=0 / bframes=3 / b_pyramid=2 / b_adapt=2 / b_bias=0 / direct=3 / weightb=1 / open_gop=0 / weightp=2 / keyint=250 / keyint_min=23 / scenecut=40 / intra_refresh=0 / rc_lookahead=50 / rc=crf / mbtree=1 / crf=21.0 / qcomp=0.60 / qpmin=0 / qpmax=69 / qpstep=4 / vbv_maxrate=1800 / vbv_bufsize=5000 / crf_max=0.0 / nal_hrd=none / filler=0 / ip_ratio=1.40 / aq=1:1.00
Codec configuration box                  : avcC

Audio
ID                                       : 2
Format                                   : AAC LC
Format/Info                              : Advanced Audio Codec Low Complexity
Codec ID                                 : mp4a-40-2
Duration                                 : 24 min 5 s
Bit rate mode                            : Variable
Bit rate                                 : 110 kb/s
Maximum bit rate                         : 112 kb/s
Channel(s)                               : 2 channels
Channel layout                           : L R
Sampling rate                            : 48.0 kHz
Frame rate                               : 46.875 FPS (1024 SPF)
Compression mode                         : Lossy
Stream size                              : 18.9 MiB (7%)
Default                                  : Yes
Alternate group                          : 1

Screenshots
Spoiler for Hiden:



Download

[hide]Easybytez
Codice:
Only registered users can see contents. Please click here to Register or Login.
Nitroflare
Codice:
Only registered users can see contents. Please click here to Register or Login.
Rapidgator
Codice:
Only registered users can see contents. Please click here to Register or Login.
Katfile
Codice:
Only registered users can see contents. Please click here to Register or Login.[/hide]


Per supportare il mio lavoro abbonati o rinnova il premium con i miei referral
Referral Easybytez
Referral Nitroflare
Referral Rapidgator
Referral Katfile
Per supportare il mio lavoro abbonati o rinnova il premium con i miei referral
Referral Easybytez
Referral Nitroflare