Autore Topic: Wakfu - Specials (2008) SATRip x264 AAC FRA Sub ITA  (Letto 234 volte)

0 Utenti e 1 Visitatore stanno visualizzando questo topic.

Offline Zero

  • Uploader
  • Hero Member
  • *
  • Post: 998
  • Karma: +0/-0
Wakfu - Specials (2008) SATRip x264 AAC FRA Sub ITA
« il: Aprile 26, 2021, 03:37:48 pm »


Wakfu è una serie animata francese del 2008 tratta dall'omonimo videogioco prodotto da Ankama Animations. La serie è composta da tre stagioni di cui le prime due di 26 episodi e la terza di 13 per un totale di 65 episodi, più tre episodi OAV speciali e tre lungometraggi (due dedicati a Wakfu, l'altro a Dofus collocato cronologicamente prima degli avvenimenti di Wakfu).

Trama:
La serie inizia qualche anno dopo gli avvenimenti narrati nel videogioco e la trama è strettamente legata a quest'ultimo. Il protagonista principale, Yugo, è l'ultimo sopravvissuto del suo popolo e viene affidato fin dall'infanzia ad Alibert per proteggerlo. Una volta compiuti 12 anni Yugo viene a conoscenza della verità e decide di partire insieme ad altri personaggi, alla ricerca delle sue origini. La sua ricerca sarà ricca di ostacoli portandolo così ad affrontare avversari sempre più forti e situazioni imprevedibili, scoprendo sempre di più sul suo antichissimo e potente popolo e salverà il mondo dal caos per ben due volte.

Titolo Originale   Wakfu
Genere: Avventura, Azione, Fantastico
Lingua orig.   francese
Paese   Francia
Autore   Ankama Animations
Regia   Anthony "Tot" Roux
Char. design   Xavier "Xa" Houssin, Kim "Tcho" Etinoff
Musiche   Guillaume "Guigui" Houzé
Studio   Ankama Animations, France Télévisions
Rete   France 3
1ª TV   30 ottobre 2008 - 17 settembre 2017
Episodi   65 (completa)
Durata ep.   22 min (stagione 1-2)
26 min (stagione 3)
Rete it.   Cartoon Network (1ª stagione, repliche 2ª stagione), Boing (2ª stagione, repliche 1ª stagione)
1ª TV it.   18 febbraio 2011
Episodi it.   52 (completa) completa su Cartoon Network, sospesa a 38 su Boing
Genere   fantastico

Report
Spoiler for Hiden:
General
Complete name                            : Wakfu - Special 01 - Noximilien L'orologiaio.mp4
Format                                   : MPEG-4
Format profile                           : Base Media
Codec ID                                 : isom (isom/iso2/avc1/mp41)
File size                                : 122 MiB
Duration                                 : 21 min 37 s
Overall bit rate mode                    : Variable
Overall bit rate                         : 790 kb/s

Video
ID                                       : 1
Format                                   : AVC
Format/Info                              : Advanced Video Codec
Format profile                           : Baseline@L3
Format settings                          : 2 Ref Frames
Format settings, CABAC                   : No
Format settings, Reference frames        : 2 frames
Codec ID                                 : avc1
Codec ID/Info                            : Advanced Video Coding
Duration                                 : 21 min 37 s
Duration_FirstFrame                      : 42 ms
Bit rate                                 : 655 kb/s
Width                                    : 720 pixels
Height                                   : 576 pixels
Display aspect ratio                     : 5:4
Frame rate mode                          : Constant
Frame rate                               : 24.000 FPS
Color space                              : YUV
Chroma subsampling                       : 4:2:0
Bit depth                                : 8 bits
Scan type                                : Progressive
Bits/(Pixel*Frame)                       : 0.066
Stream size                              : 101 MiB (83%)
Writing library                          : x264 core 142 r2495 6a301b6
Encoding settings                        : cabac=0 / ref=2 / deblock=1:0:0 / analyse=0x1:0x111 / me=hex / subme=4 / psy=1 / psy_rd=1.00:0.00 / mixed_ref=0 / me_range=16 / chroma_me=1 / trellis=1 / 8x8dct=0 / cqm=0 / deadzone=21,11 / fast_pskip=1 / chroma_qp_offset=0 / threads=2 / lookahead_threads=1 / sliced_threads=0 / nr=0 / decimate=1 / interlaced=0 / bluray_compat=0 / constrained_intra=0 / bframes=0 / weightp=0 / keyint=250 / keyint_min=24 / scenecut=40 / intra_refresh=0 / rc_lookahead=20 / rc=crf / mbtree=1 / crf=23.0 / qcomp=0.60 / qpmin=0 / qpmax=69 / qpstep=4 / ip_ratio=1.40 / aq=1:1.00
Codec configuration box                  : avcC

Audio
ID                                       : 2
Format                                   : AAC LC
Format/Info                              : Advanced Audio Codec Low Complexity
Codec ID                                 : mp4a-40-2
Duration                                 : 21 min 37 s
Source duration                          : 21 min 37 s
Bit rate mode                            : Variable
Bit rate                                 : 128 kb/s
Maximum bit rate                         : 523 kb/s
Channel(s)                               : 2 channels
Channel layout                           : L R
Sampling rate                            : 44.1 kHz
Frame rate                               : 43.066 FPS (1024 SPF)
Compression mode                         : Lossy
Stream size                              : 19.8 MiB (16%)
Source stream size                       : 19.8 MiB (16%)
mdhd_Duration                            : 1297438

Screenshots
Spoiler for Hiden:



Download

Easybytez
Codice:
Only registered users can see contents. Please click here to Register or Login.
Ddownload
Codice:
Only registered users can see contents. Please click here to Register or Login.

Per supportare il mio lavoro abbonati o rinnova il premium con i miei referral
Referral Easybytez
Per supportare il mio lavoro abbonati o rinnova il premium con i miei referral
Referral Easybytez
Referral Nitroflare