Autore Topic: Sakugan (2021) HD 720p AAC JAP Sub ITA  (Letto 176 volte)

0 Utenti e 1 Visitatore stanno visualizzando questo topic.

Offline Zero

  • Uploader
  • Hero Member
  • *
  • Post: 1127
  • Karma: +0/-0
Sakugan (2021) HD 720p AAC JAP Sub ITA
« il: Febbraio 06, 2022, 06:19:40 pm »


Sakugan is a Japanese anime television series produced by Satelight. It is directed and written by Jun'ichi Wada, with character designs by Yūji Iwahara, and music by Tatsuya Kato. It aired from October to December 2021.

Trama
In un distante futuro, la razza umana vive spalla a spalla in una angusta colonia fondata sulla roccia. Fuori dalla colonia si estende una pericolosa area chiamata "Il Labirinto". Coloro che si avventurano nelle aree non edificate del Labirinto, per mapparlo, sono conosciuti come "Marker". Memempu è una giovane ragazza che vuole diventare una Marker e Gagumber è un uomo che ha cessato di esserlo. Questa accozzaglia di padre e figlia è la squadra che esplorerà il Labirinto! "Se non c'è una strada, scaviamola!".

Titolo originale   Sakugan Labyrinth Marker
Titolo inglese   Drilling Labyrinth Marker
Genere: Fantascienza, Mecha
Novel
Sakugan Labyrinth Marker
Written by   Nekotarō Inui
Manga
Written by   Keisuke Sato
Published by   Square Enix
Magazine   Manga UP!
Demographic   Shōnen
Original run   August 13, 2021 – present
Anime television series
Directed by   Jun'ichi Wada
Written by   Jun'ichi Wada
Music by   Tatsuya Kato
Studio   Satelight
Licensed by   Crunchyroll
SEA
Bilibili
Original network   Tokyo MX, MBS, BS11
Original run   October 7, 2021 – December 23, 2021
Episodes   12

Report
Spoiler for Hiden:
General
Complete name                            : Sakugan_Ep_01_SUB_ITA.mp4
Format                                   : MPEG-4
Format profile                           : Base Media
Codec ID                                 : isom (isom/avc1)
File size                                : 305 MiB
Duration                                 : 23 min 40 s
Overall bit rate mode                    : Variable
Overall bit rate                         : 1 802 kb/s
Encoded date                             : UTC 2021-10-07 15:18:36
Tagged date                              : UTC 2021-10-07 15:18:36

Video
ID                                       : 1
Format                                   : AVC
Format/Info                              : Advanced Video Codec
Format profile                           : High@L4
Format settings                          : CABAC / 6 Ref Frames
Format settings, CABAC                   : Yes
Format settings, Reference frames        : 6 frames
Codec ID                                 : avc1
Codec ID/Info                            : Advanced Video Coding
Duration                                 : 23 min 39 s
Bit rate                                 : 1 649 kb/s
Maximum bit rate                         : 13.5 Mb/s
Width                                    : 1 280 pixels
Height                                   : 720 pixels
Display aspect ratio                     : 16:9
Frame rate mode                          : Constant
Frame rate                               : 23.976 (24000/1001) FPS
Color space                              : YUV
Chroma subsampling                       : 4:2:0
Bit depth                                : 8 bits
Scan type                                : Progressive
Bits/(Pixel*Frame)                       : 0.075
Stream size                              : 279 MiB (92%)
Writing library                          : x264 core 157 r2935 545de2f
Encoding settings                        : cabac=1 / ref=6 / deblock=1:1:1 / analyse=0x3:0x113 / me=hex / subme=7 / psy=1 / psy_rd=0.40:0.00 / mixed_ref=1 / me_range=16 / chroma_me=1 / trellis=1 / 8x8dct=1 / cqm=0 / deadzone=21,11 / fast_pskip=1 / chroma_qp_offset=-2 / threads=22 / lookahead_threads=3 / sliced_threads=0 / nr=0 / decimate=1 / interlaced=0 / bluray_compat=0 / constrained_intra=0 / bframes=5 / b_pyramid=2 / b_adapt=1 / b_bias=0 / direct=1 / weightb=1 / open_gop=0 / weightp=2 / keyint=240 / keyint_min=23 / scenecut=40 / intra_refresh=0 / rc_lookahead=40 / rc=2pass / mbtree=1 / bitrate=1649 / ratetol=1.0 / qcomp=0.60 / qpmin=0 / qpmax=69 / qpstep=4 / cplxblur=20.0 / qblur=0.5 / ip_ratio=1.40 / aq=1:0.60
Encoded date                             : UTC 2021-10-07 15:18:36
Tagged date                              : UTC 2021-10-07 15:18:39
Codec configuration box                  : avcC

Audio
ID                                       : 2
Format                                   : AAC LC
Format/Info                              : Advanced Audio Codec Low Complexity
Codec ID                                 : mp4a-40-2
Duration                                 : 23 min 40 s
Bit rate mode                            : Variable
Bit rate                                 : 149 kb/s
Maximum bit rate                         : 187 kb/s
Channel(s)                               : 2 channels
Channel layout                           : L R
Sampling rate                            : 44.1 kHz
Frame rate                               : 43.066 FPS (1024 SPF)
Compression mode                         : Lossy
Stream size                              : 25.2 MiB (8%)
Language                                 : Japanese
Encoded date                             : UTC 2021-10-07 15:13:33
Tagged date                              : UTC 2021-10-07 15:18:39

Screenshots
Spoiler for Hiden:



Download

Easybytez
Codice:
Only registered users can see contents. Please click here to Register or Login.
Katfile
Codice:
Only registered users can see contents. Please click here to Register or Login.

Per supportare il mio lavoro abbonati o rinnova il premium con i miei referral
Referral Easybytez
Referral Katfile
Referral Nitroflare
Per supportare il mio lavoro abbonati o rinnova il premium con i miei referral
Referral Easybytez
Referral Nitroflare