Autore Topic: Videolezioni di Azionamenti Elettronici II [SATRip ITA]  (Letto 531 volte)

0 Utenti e 1 Visitatore stanno visualizzando questo topic.

Offline Zero

  • Uploader
  • Hero Member
  • *
  • Post: 1005
  • Karma: +0/-0
Videolezioni di Azionamenti Elettronici II [SATRip ITA]
« il: Luglio 13, 2020, 10:48:21 am »


Prerequisiti
Azionamenti Elettrici I, Elettronica industriale di potenza I.

Scopi
Analisi delle moderne tipologie di azionamento, con particolare riferimento alle applicazioni ad alte prestazioni dinamiche (macchine utensili, robotica, ecc.)

Contenuti
- Tipologia di azionamenti ad alta dinamica
-- Tipo di carico, prestazioni, eventuale deflussaggio
-- Schema di controllo di azionamento: limiti di prestazione e relative cause
-- Materiali magnetici permanenti per impiego motoristico
-- Servomotori in corrente continua: descrizione e prestazioni
-- Servomotori sincroni a magneti permanenti (brushless)
-- Modellistica e tecniche di controllo di macchina
-- Controllo vettoriale di corrente
-- Modello dinamico del motore a induzione
-- Controllo ad orientamento di campo
-- Applicazione del motore ad induzione in azionamenti per mandrino
-- Motore sincrono a riluttanza: descrizione e modellistica
-- Confronto di prestazione tra diversi motori in corrente alternata
-- Cenni su altri tipi di azionamenti di comune impiego

Testi
L. BONOMETTI, Convertitori di potenza e servomotori brushless, Editoriale Delfino, Milano, 1996 (per consultazione).

Docente Video
Prof. Fiorenzo Franceschini - Politecnico di Torino (Torino - Italy)
Prof. Alfredo Vagati - Politecnico di Torino

Report
Spoiler for Hiden:
General
Complete name                            : Videolezioni di Azionamenti Elettronici II\Lez 01 - Considerazioni introduttive al corso (480p_25fps_H264-128kbit_AAC).mp4
Format                                   : MPEG-4
Format profile                           : Base Media
Codec ID                                 : isom (isom/iso2/avc1/mp41)
File size                                : 222 MiB
Duration                                 : 40 min 48 s
Overall bit rate                         : 761 kb/s
Movie name                               : Lez 01 - Considerazioni introduttive al corso
Recorded date                            : 2013
Writing application                      : Lavf55.49.100

Video
ID                                       : 1
Format                                   : AVC
Format/Info                              : Advanced Video Codec
Format profile                           : Main@L3
Format settings                          : CABAC / 3 Ref Frames
Format settings, CABAC                   : Yes
Format settings, Reference frames        : 3 frames
Codec ID                                 : avc1
Codec ID/Info                            : Advanced Video Coding
Duration                                 : 40 min 48 s
Bit rate                                 : 629 kb/s
Width                                    : 600 pixels
Height                                   : 480 pixels
Display aspect ratio                     : 5:4
Frame rate mode                          : Constant
Frame rate                               : 25.000 FPS
Color space                              : YUV
Chroma subsampling                       : 4:2:0
Bit depth                                : 8 bits
Scan type                                : Progressive
Bits/(Pixel*Frame)                       : 0.087
Stream size                              : 184 MiB (83%)
Codec configuration box                  : avcC

Audio
ID                                       : 2
Format                                   : AAC LC
Format/Info                              : Advanced Audio Codec Low Complexity
Codec ID                                 : mp4a-40-2
Duration                                 : 40 min 48 s
Bit rate mode                            : Constant
Bit rate                                 : 126 kb/s
Channel(s)                               : 2 channels
Channel layout                           : L R
Sampling rate                            : 44.1 kHz
Frame rate                               : 43.066 FPS (1024 SPF)
Compression mode                         : Lossy
Stream size                              : 36.7 MiB (16%)
Default                                  : Yes
Alternate group                          : 1

Screenshots
Spoiler for Hiden:



Download

Easybytez
[hide]
Codice:
Only registered users can see contents. Please click here to Register or Login.[/hide]


Per supportare il mio lavoro abbonati o rinnova il premium con i miei referral
Referral Easybytez
Referral Nitroflare
Referral Rapidgator
Referral Katfile
Per supportare il mio lavoro abbonati o rinnova il premium con i miei referral
Referral Easybytez
Referral Nitroflare