Autore Topic: Final Space - Stagione 1 (2018) WEBRip 1080p HEVC AC3 ITA  (Letto 147 volte)

0 Utenti e 1 Visitatore stanno visualizzando questo topic.

Offline Zero

  • Uploader
  • Hero Member
  • *
  • Post: 1127
  • Karma: +0/-0
Final Space - Stagione 1 (2018) WEBRip 1080p HEVC AC3 ITA
« il: Gennaio 23, 2022, 06:51:14 pm »


Final Space è una serie animata statunitense ideata da Olan Rogers e David Sacks per la TBS.

Trama
La storia ruota attorno a un astronauta di nome Gary. Dopo aver passato ormai 5 anni imprigionato all'interno della sua astronave, inizierà la sua avventura verso la fine dello spazio assieme a Mooncake,un alieno in grado di distruggere interi pianeti.

Titolo originale  Final Space
Lingua orig.   inglese
Paese   Stati Uniti
Autore   Olan Rogers, David Sacks
Regia   Mike Roberts, Dan O'Connor, Ben Bjelajac
Produttore   Conan O’Brien, Olan Rogers, David Sacks, David Kissinger, Larry Sullivan, Jeff Ross, Kathleen Grace, Melissa Schneider, Matt Hoklotubbe, Corey Campodonico, Alex Bulkley, Adam Stein, Caitlin Alexander, Tobias Conan Trost, Rosa Tran
Soggetto   Olan Rogers, David Sacks, Jane Becker, Nick Watson, Kelly D'Angelo, Adam Stein, Cameron Squires, Ben Mekler, Christopher Amick
Musiche   Jake Sidwell, Shelby Merry, Larry Z. Ho, Alan Hoyna, Cam Leeburg, Nathan Palm, Sarah Putros
Studio   ShadowMachine, Jam Filled Ottawa, Star Cadet, New Form Digital, Conaco, Studio T
Rete   TBS (1ª stagione), Adult Swim (2ª-3ª stagione)
1ª TV   26 febbraio 2018 – 14 giugno 2021
Episodi   36 (completa)
Rapporto   16:9
Durata   21 min
Editore it.   Netflix
1ª TV it.   20 luglio 2018 – 16 settembre 2021
Episodi it.   36 (completa)
Genere: Avventura, Commedia, Fantascienza

Report
Spoiler for Hiden:
General
Complete name                            : Final.Space.1x01.Capitolo.uno.2018.iTALiAN.WEBRIP.1080p.x265.ChiMeRa.mkv
Format                                   : Matroska
Format version                           : Version 4
File size                                : 497 MiB
Duration                                 : 21 min 41 s
Overall bit rate                         : 3 206 kb/s
Encoded date                             : UTC 2018-09-01 01:16:20
Writing application                      : mkvmerge v8.3.0 ('Over the Horizon') 64bit
Writing library                          : libebml v1.3.1 + libmatroska v1.4.2

Video
ID                                       : 1
Format                                   : HEVC
Format/Info                              : High Efficiency Video Coding
Format profile                           : Main@L4@Main
Codec ID                                 : V_MPEGH/ISO/HEVC
Duration                                 : 21 min 18 s
Bit rate                                 : 3 066 kb/s
Width                                    : 1 920 pixels
Height                                   : 1 080 pixels
Display aspect ratio                     : 16:9
Frame rate mode                          : Variable
Frame rate                               : 23.976 FPS
Color space                              : YUV
Chroma subsampling                       : 4:2:0
Bit depth                                : 8 bits
Bits/(Pixel*Frame)                       : 0.062
Stream size                              : 467 MiB (94%)
Writing library                          : x265 2.5+27-0e168bdeb48b:[Linux][GCC 6.4.0][64 bit] 8bit+10bit+12bit
Encoding settings                        : cpuid=1173503 / frame-threads=3 / wpp / no-pmode / no-pme / no-psnr / no-ssim / log-level=2 / input-csp=1 / input-res=1920x1080 / interlace=0 / total-frames=0 / level-idc=0 / high-tier=1 / uhd-bd=0 / ref=3 / no-allow-non-conformance / no-repeat-headers / annexb / no-aud / no-hrd / info / hash=0 / no-temporal-layers / open-gop / min-keyint=23 / keyint=250 / bframes=4 / b-adapt=2 / b-pyramid / bframe-bias=0 / rc-lookahead=20 / lookahead-slices=6 / scenecut=40 / no-intra-refresh / ctu=64 / min-cu-size=8 / no-rect / no-amp / max-tu-size=32 / tu-inter-depth=1 / tu-intra-depth=1 / limit-tu=0 / rdoq-level=0 / dynamic-rd=0.00 / no-ssim-rd / signhide / no-tskip / nr-intra=0 / nr-inter=0 / no-constrained-intra / strong-intra-smoothing / max-merge=2 / limit-refs=3 / no-limit-modes / me=1 / subme=2 / merange=57 / temporal-mvp / weightp / no-weightb / no-analyze-src-pics / deblock=0:0 / sao / no-sao-non-deblock / rd=3 / no-early-skip / rskip / no-fast-intra / no-tskip-fast / no-cu-lossless / no-b-intra / no-splitrd-skip / rdpenalty=0 / psy-rd=2.00 / psy-rdoq=0.00 / no-rd-refine / analysis-reuse-mode=0 / no-lossless / cbqpoffs=0 / crqpoffs=0 / rc=crf / crf=23.5 / qcomp=0.60 / qpstep=4 / stats-write=0 / stats-read=0 / ipratio=1.40 / pbratio=1.30 / aq-mode=1 / aq-strength=1.00 / cutree / zone-count=0 / no-strict-cbr / qg-size=32 / no-rc-grain / qpmax=69 / qpmin=0 / no-const-vbv / sar=1 / overscan=0 / videoformat=5 / range=0 / colorprim=2 / transfer=2 / colormatrix=2 / chromaloc=0 / display-window=0 / max-cll=0,0 / min-luma=0 / max-luma=255 / log2-max-poc-lsb=8 / vui-timing-info / vui-hrd-info / slices=1 / opt-qp-pps / opt-ref-list-length-pps / no-multi-pass-opt-rps / scenecut-bias=0.05 / no-opt-cu-delta-qp / no-aq-motion / no-hdr / no-hdr-opt / no-dhdr10-opt / analysis-reuse-level=5 / scale-factor=0 / refine-intra=0 / refine-inter=0 / refine-mv=0 / no-limit-sao / ctu-info=0
Language                                 : English
Default                                  : Yes
Forced                                   : No

Audio
ID                                       : 2
Format                                   : AC-3
Format/Info                              : Audio Coding 3
Commercial name                          : Dolby Digital
Codec ID                                 : A_AC3
Duration                                 : 21 min 41 s
Bit rate mode                            : Constant
Bit rate                                 : 192 kb/s
Channel(s)                               : 6 channels
Channel layout                           : L R C LFE Ls Rs
Sampling rate                            : 48.0 kHz
Frame rate                               : 31.250 FPS (1536 SPF)
Bit depth                                : 16 bits
Compression mode                         : Lossy
Delay relative to video                  : 12 ms
Stream size                              : 29.8 MiB (6%)
Language                                 : Italian
Service kind                             : Complete Main
Default                                  : Yes
Forced                                   : Yes

Screenshots
Spoiler for Hiden:



Download

Easybytez
Codice:
Only registered users can see contents. Please click here to Register or Login.

Per supportare il mio lavoro abbonati o rinnova il premium con i miei referral
Referral Easybytez
Referral Katfile
Referral Nitroflare
Per supportare il mio lavoro abbonati o rinnova il premium con i miei referral
Referral Easybytez
Referral Nitroflare