Autore Topic: Code Geass - Akito The Exiled 05 - Alle Persone Più Care (2015) BDRip 720p HEVC  (Letto 38 volte)

0 Utenti e 1 Visitatore stanno visualizzando questo topic.

Offline Zero

  • Uploader
  • Hero Member
  • *
  • Post: 998
  • Karma: +0/-0


Code Geass: Akito the Exiled è una serie di film anime del media franchise giapponese Code Geass, in cinque episodi, gaiden della serie televisiva Code Geass: Lelouch of the Rebellion. I film hanno la stessa ambientazione della serie, ma personaggi differenti: alcuni ragazzi originari dell'Area 11 (il Giappone) inviati a combattere in Europa.

Trama
La storia degli si svolge nell'anno 2017 a.t.b., a cavallo fra la prima e la seconda serie, quando il Giappone comincia ad accusare colpi dopo la sparizione e la presunta morte di Zero, alter ego di Lelouch a capo dei Cavalieri Neri. La trama prende piede nella superpotenza Euro Universe, la quale, soverchiata dall'aggressiva campagna militare del Sacro Impero di Britannia, spera di cambiare le sorti della guerra formando una speciale divisione conosciuta come wZERO, nella quale milita un promettente pilota di Knightmare Frame, Akito Hyuga. Altro personaggio rilevante sarà Leila Malkal, ex aristocratica britanna votatasi alla causa dell'E.U., la quale capeggia il gruppo di ribelli Wyvern, composto da giovani giapponesi. I Wyvern si lanciano incautamente sul campo di battaglia, dove le possibilità di sopravvivenza sono incredibilmente scarse. Loro combattono per la propria libertà e per una "casa" in cui tornare.

Titolo originale   Code Geass: Boukoku no Akito
Paese di produzione   Giappone
Anno   2012
Durata   60 min
Genere: Azione, Fantascienza, Guerra, Mecha
Regia   Kazuki Akane
Sceneggiatura   Kazuki Akane
Casa di produzione   Sunrise
Musiche   Ichiko Hashimoto
Character design   Takahiro Kimura
Doppiatori originali
Miyu Irino: Akito Hyūga
Maaya Sakamoto: Leila Malcal
Satoshi Hino: Ryō Sayama
Yoshitsugu Matsuoka: Yukiya Naruse
Yōko Hikasa: Ayano Kōsaka
Masaya Matsukaze: Shin Hyūga Shaing
Mariya Ise: Jean Rowe
Takuma Terashima: Ashley Ashra
Jun Fukuyama: Julius Kingsley
Takahiro Sakurai: Suzaku Kururugi
Doppiatori italiani
Federico Viola: Akito Hyūga
Emanuela Pacotto: Leila Malcal
Roger Mantovani: Ryō Sayama
Federico Zanandrea: Yukiya Naruse
Deborah Morese: Ayano Kōsaka
Alessandro Zurla: Shin Hyūga Shaing
Ludovica De Caro Jean Rowe
Max Di Benedetto: Ashley Ashra
Massimiliano Alto: Julius Kingsley
Davide Perino: Suzaku Kururugi
Episodi
Yokuryū wa maiorita - Il Wyvern si è posato (4 agosto 2012)
Hikisakareshi Yokuryū - Il Wyvern lacerato (14 settembre 2013)
Kagayaku mono ten yori otsu - Ciò che riluce, dal cielo ricade (2 maggio 2015)
Nikushimi no kioku kara - Dai Ricordi dell'odio (4 luglio 2015)
Itoshiki monotachi e - Alle persone più care (6 febbraio 2016)

Report
Spoiler for Hiden:
General
Complete name                            : Code Geass - Akito The Exiled 05 [BDRip 720p HEVC DTS ITA AC3 JAP Sub ITA].mkv
Format                                   : Matroska
Format version                           : Version 4
File size                                : 1.47 GiB
Duration                                 : 1 h 0 min
Overall bit rate                         : 3 494 kb/s
Movie name                               : Zero-Lelouch
Encoded date                             : UTC 2018-09-09 19:05:25
Writing application                      : mkvmerge v26.0.0 ('In The Game') 64-bit
Writing library                          : libebml v1.3.6 + libmatroska v1.4.9

Video
ID                                       : 1
Format                                   : HEVC
Format/Info                              : High Efficiency Video Coding
Format profile                           : Main@L3.1@Main
Codec ID                                 : V_MPEGH/ISO/HEVC
Duration                                 : 1 h 0 min
Bit rate                                 : 1 343 kb/s
Width                                    : 1 280 pixels
Height                                   : 720 pixels
Display aspect ratio                     : 16:9
Frame rate mode                          : Constant
Frame rate                               : 23.976 (24000/1001) FPS
Color space                              : YUV
Chroma subsampling                       : 4:2:0
Bit depth                                : 8 bits
Bits/(Pixel*Frame)                       : 0.061
Stream size                              : 577 MiB (38%)
Title                                    : Zero-Lelouch
Writing library                          : x265 2.6:[Windows][GCC 7.3.0][64 bit] 8bit+10bit+12bit
Encoding settings                        : cpuid=1173503 / frame-threads=3 / numa-pools=8 / wpp / no-pmode / no-pme / no-psnr / no-ssim / log-level=2 / input-csp=1 / input-res=1280x720 / interlace=0 / total-frames=0 / level-idc=0 / high-tier=1 / uhd-bd=0 / ref=4 / no-allow-non-conformance / no-repeat-headers / annexb / no-aud / no-hrd / info / hash=0 / no-temporal-layers / open-gop / min-keyint=24 / keyint=240 / bframes=4 / b-adapt=2 / b-pyramid / bframe-bias=0 / rc-lookahead=25 / lookahead-slices=4 / scenecut=40 / no-intra-refresh / ctu=64 / min-cu-size=8 / no-rect / no-amp / max-tu-size=32 / tu-inter-depth=1 / tu-intra-depth=1 / limit-tu=0 / rdoq-level=2 / dynamic-rd=0.00 / no-ssim-rd / signhide / no-tskip / nr-intra=0 / nr-inter=0 / no-constrained-intra / no-strong-intra-smoothing / max-merge=3 / limit-refs=3 / limit-modes / me=3 / subme=3 / merange=57 / temporal-mvp / weightp / no-weightb / no-analyze-src-pics / deblock=0:0 / sao / no-sao-non-deblock / rd=4 / no-early-skip / rskip / no-fast-intra / no-tskip-fast / no-cu-lossless / no-b-intra / no-splitrd-skip / rdpenalty=0 / psy-rd=2.00 / psy-rdoq=1.00 / no-rd-refine / analysis-reuse-mode=0 / no-lossless / cbqpoffs=0 / crqpoffs=0 / rc=crf / crf=21.0 / qcomp=0.60 / qpstep=4 / stats-write=0 / stats-read=0 / ipratio=1.40 / pbratio=1.30 / aq-mode=1 / aq-strength=1.00 / cutree / zone-count=0 / no-strict-cbr / qg-size=32 / no-rc-grain / qpmax=69 / qpmin=0 / no-const-vbv / sar=1 / overscan=0 / videoformat=5 / range=0 / colorprim=1 / transfer=1 / colormatrix=1 / chromaloc=0 / display-window=0 / max-cll=0,0 / min-luma=0 / max-luma=255 / log2-max-poc-lsb=8 / vui-timing-info / vui-hrd-info / slices=1 / no-opt-qp-pps / no-opt-ref-list-length-pps / no-multi-pass-opt-rps / scenecut-bias=0.05 / no-opt-cu-delta-qp / no-aq-motion / no-hdr / no-hdr-opt / no-dhdr10-opt / analysis-reuse-level=5 / scale-factor=0 / refine-intra=0 / refine-inter=0 / refine-mv=0 / no-limit-sao / ctu-info=0 / no-lowpass-dct / refine-mv-type=0 / copy-pic=1
Language                                 : Japanese
Default                                  : Yes
Forced                                   : No
Color range                              : Limited
Color primaries                          : BT.709
Transfer characteristics                 : BT.709
Matrix coefficients                      : BT.709

Audio #1
ID                                       : 2
Format                                   : DTS
Format/Info                              : Digital Theater Systems
Codec ID                                 : A_DTS
Duration                                 : 1 h 0 min
Bit rate mode                            : Constant
Bit rate                                 : 1 509 kb/s
Channel(s)                               : 6 channels
Channel layout                           : C L R Ls Rs LFE
Sampling rate                            : 48.0 kHz
Frame rate                               : 93.750 FPS (512 SPF)
Bit depth                                : 24 bits
Compression mode                         : Lossy
Stream size                              : 648 MiB (43%)
Title                                    : Italiano DTS 5.1
Language                                 : Italian
Default                                  : Yes
Forced                                   : No

Audio #2
ID                                       : 3
Format                                   : AC-3
Format/Info                              : Audio Coding 3
Commercial name                          : Dolby Digital
Codec ID                                 : A_AC3
Duration                                 : 1 h 0 min
Bit rate mode                            : Constant
Bit rate                                 : 640 kb/s
Channel(s)                               : 6 channels
Channel layout                           : L R C LFE Ls Rs
Sampling rate                            : 48.0 kHz
Frame rate                               : 31.250 FPS (1536 SPF)
Bit depth                                : 16 bits
Compression mode                         : Lossy
Stream size                              : 275 MiB (18%)
Title                                    : Giapponese Dolby Digital 5.1
Language                                 : Japanese
Service kind                             : Complete Main
Default                                  : No
Forced                                   : No

Text #1
ID                                       : 4
Format                                   : UTF-8
Codec ID                                 : S_TEXT/UTF8
Codec ID/Info                            : UTF-8 Plain Text
Duration                                 : 58 min 16 s
Bit rate                                 : 0 b/s
Count of elements                        : 12
Stream size                              : 196 Bytes (0%)
Title                                    : Italiano (Cartelli)
Language                                 : Italian
Default                                  : Yes
Forced                                   : No

Text #2
ID                                       : 5
Format                                   : UTF-8
Codec ID                                 : S_TEXT/UTF8
Codec ID/Info                            : UTF-8 Plain Text
Duration                                 : 59 min 38 s
Bit rate                                 : 62 b/s
Count of elements                        : 757
Stream size                              : 27.1 KiB (0%)
Title                                    : Italiano (Dialoghi)
Language                                 : Italian
Default                                  : No
Forced                                   : No

Menu
00:00:00.000                             : :Chapter 1
00:04:49.790                             : :Chapter 2
00:09:53.384                             : :Chapter 3
00:11:59.010                             : :Chapter 4
00:16:24.942                             : :Chapter 5
00:20:59.425                             : :Chapter 6
00:27:31.567                             : :Chapter 7
00:29:46.368                             : :Chapter 8
00:33:13.783                             : :Chapter 9
00:41:29.529                             : :Chapter 10
00:45:24.680                             : :Chapter 11
00:53:44.304                             : :Chapter 12
00:59:23.560                             : :Chapter 13

Screenshots
Spoiler for Hiden:



Download

Easybytez - Ddownload
Codice:
Only registered users can see contents. Please click here to Register or Login.

Per supportare il mio lavoro abbonati o rinnova il premium con i miei referral
Referral Easybytez
Per supportare il mio lavoro abbonati o rinnova il premium con i miei referral
Referral Easybytez
Referral Nitroflare