DDLSpace

Film e Lungometraggi Animazione/Cartoni animati/Anime => Film/Animazione/Cartoni animati/Anime Sub ITA => Topic aperto da: Zero - Agosto 06, 2020, 12:34:03 pm

Titolo: GTO - Great Teacher Onizuka - The Movie (Live Action 1999) DVDRip x264 AAC JAP Sub ITA
Inserito da: Zero - Agosto 06, 2020, 12:34:03 pm
(https://i.postimg.cc/T3CJCH06/GTOLive-Action-Movie-cover.jpg)

Dal manga di GTO Great Teacher Onizuka scritto da Toru Fujisawa, oltre a una prima serie di live action del 1998, è stato tratto anche un film proiettato nelle sale cinematografiche nel 1999, prodotto da Sawako Noma, diretto da Masayuki Suzuki, scritto da Mitsuru Tanabe e adattato da Brian O'Hara. La storia è inedita rispetto alle vicende già raccontate dai vari adattamenti e si sviluppa in maniera originale.

Trama
Il film è ambientato in una cittadina di campagna dell'Hokkaido, dove il nostro "great teacher" dovrà vedersela con una scuola di campagna vecchio stile, con un ricco uomo d'affari la cui figlia non sembra molto contenta della vita che svolge, con dei problemi d'amore di un suo studente ma soprattutto con un incomprensione fra lui e una giornalista che gli potrebbe costare la galera!

Titolo originale  GTO: The Movie
Titolo inglese  GTO: The Movie
Nazionalità  Giappone
Regia  Masayuki Suzuki
Genere  Commedia  Scolastico
Anno  1999

Report
General
Complete name                            : GTO Live Action 1999 - The Movie.mp4
Format                                   : MPEG-4
Format profile                           : Base Media / Version 2
Codec ID                                 : mp42 (isom/iso2/avc1/mp41)
File size                                : 623 MiB
Duration                                 : 1 h 48 min
Overall bit rate mode                    : Variable
Overall bit rate                         : 805 kb/s
Encoded date                             : UTC 2016-10-18 10:14:08
Tagged date                              : UTC 2016-10-18 10:14:08

Video
ID                                       : 1
Format                                   : AVC
Format/Info                              : Advanced Video Codec
Format profile                           : High@L3.1
Format settings                          : CABAC / 4 Ref Frames
Format settings, CABAC                   : Yes
Format settings, Reference frames        : 4 frames
Codec ID                                 : avc1
Codec ID/Info                            : Advanced Video Coding
Duration                                 : 1 h 48 min
Bit rate                                 : 512 kb/s
Width                                    : 512 pixels
Height                                   : 386 pixels
Display aspect ratio                     : 4:3
Frame rate mode                          : Variable
Frame rate                               : 23.976 FPS
Minimum frame rate                       : 11.989 FPS
Maximum frame rate                       : 23.981 FPS
Color space                              : YUV
Chroma subsampling                       : 4:2:0
Bit depth                                : 8 bits
Scan type                                : Progressive
Bits/(Pixel*Frame)                       : 0.108
Stream size                              : 392 MiB (63%)
Writing library                          : x264 core 142 r2491 24e4fed
Encoding settings                        : cabac=1 / ref=3 / deblock=1:0:0 / analyse=0x3:0x113 / me=hex / subme=7 / psy=1 / psy_rd=1.00:0.00 / mixed_ref=1 / me_range=16 / chroma_me=1 / trellis=1 / 8x8dct=1 / cqm=0 / deadzone=21,11 / fast_pskip=1 / chroma_qp_offset=-2 / threads=12 / lookahead_threads=2 / sliced_threads=0 / nr=0 / decimate=1 / interlaced=0 / bluray_compat=0 / constrained_intra=0 / bframes=3 / b_pyramid=2 / b_adapt=1 / b_bias=0 / direct=1 / weightb=1 / open_gop=0 / weightp=2 / keyint=240 / keyint_min=24 / scenecut=40 / intra_refresh=0 / rc_lookahead=40 / rc=abr / mbtree=1 / bitrate=512 / ratetol=1.0 / qcomp=0.60 / qpmin=0 / qpmax=69 / qpstep=4 / vbv_maxrate=17500 / vbv_bufsize=17500 / nal_hrd=none / filler=0 / ip_ratio=1.40 / aq=1:1.00
Encoded date                             : UTC 2016-10-18 10:14:08
Tagged date                              : UTC 2016-10-18 10:14:08
Color range                              : Limited
Color primaries                          : BT.601 NTSC
Transfer characteristics                 : BT.709
Matrix coefficients                      : BT.601
Codec configuration box                  : avcC

Audio
ID                                       : 2
Format                                   : AAC LC
Format/Info                              : Advanced Audio Codec Low Complexity
Codec ID                                 : mp4a-40-2
Duration                                 : 1 h 48 min
Bit rate mode                            : Variable
Bit rate                                 : 288 kb/s
Channel(s)                               : 6 channels
Channel layout                           : C L R Ls Rs LFE
Sampling rate                            : 48.0 kHz
Frame rate                               : 46.875 FPS (1024 SPF)
Compression mode                         : Lossy
Stream size                              : 226 MiB (36%)
Title                                    : Surround / Surround
Default                                  : Yes
Alternate group                          : 1
Encoded date                             : UTC 2016-10-18 10:14:08
Tagged date                              : UTC 2016-10-18 10:14:08

Screenshots
(https://i.postimg.cc/4NRPdcyr/vlcsnap-2020-08-06-10h41m09s987.png)
(https://i.postimg.cc/pXQZndny/vlcsnap-2020-08-06-10h41m34s660.png)
(https://i.postimg.cc/L8HVkMzD/vlcsnap-2020-08-06-10h43m30s733.png)

Download

Easybytez
[hide]
Codice:
Only registered users can see contents. Please click here to Register or Login.[/hide]

Rapidgator
[hide]
Codice:
Only registered users can see contents. Please click here to Register or Login.[/hide]

Katfile
[hide]
Codice:
Only registered users can see contents. Please click here to Register or Login.[/hide]


Per supportare il mio lavoro abbonati o rinnova il premium con i miei referral
Referral Easybytez (http://www.easybytez.com/free197165.html)
Referral Nitroflare (https://www.nitroflare.com/payment?webmaster=840)
Referral Rapidgator (http://rapidgator.net/account/registration/ref/462850)
Referral Katfile (http://katfile.com/free9934.html)