Autore Topic: Code Geass - Akito The Exiled 04 - Dai Ricordi Dell'Odio (2015) BDRip XviD AC3 ITA  (Letto 25 volte)

0 Utenti e 1 Visitatore stanno visualizzando questo topic.

Offline Zero

  • Uploader
  • Hero Member
  • *
  • Post: 986
  • Karma: +0/-0


Code Geass: Akito the Exiled è una serie di film anime del media franchise giapponese Code Geass, in cinque episodi, gaiden della serie televisiva Code Geass: Lelouch of the Rebellion. I film hanno la stessa ambientazione della serie, ma personaggi differenti: alcuni ragazzi originari dell'Area 11 (il Giappone) inviati a combattere in Europa.

Trama
La storia degli si svolge nell'anno 2017 a.t.b., a cavallo fra la prima e la seconda serie, quando il Giappone comincia ad accusare colpi dopo la sparizione e la presunta morte di Zero, alter ego di Lelouch a capo dei Cavalieri Neri. La trama prende piede nella superpotenza Euro Universe, la quale, soverchiata dall'aggressiva campagna militare del Sacro Impero di Britannia, spera di cambiare le sorti della guerra formando una speciale divisione conosciuta come wZERO, nella quale milita un promettente pilota di Knightmare Frame, Akito Hyuga. Altro personaggio rilevante sarà Leila Malkal, ex aristocratica britanna votatasi alla causa dell'E.U., la quale capeggia il gruppo di ribelli Wyvern, composto da giovani giapponesi. I Wyvern si lanciano incautamente sul campo di battaglia, dove le possibilità di sopravvivenza sono incredibilmente scarse. Loro combattono per la propria libertà e per una "casa" in cui tornare.

Titolo originale   Code Geass: Boukoku no Akito
Paese di produzione   Giappone
Anno   2012
Durata   60 min
Genere: Azione, Fantascienza, Guerra, Mecha
Regia   Kazuki Akane
Sceneggiatura   Kazuki Akane
Casa di produzione   Sunrise
Musiche   Ichiko Hashimoto
Character design   Takahiro Kimura
Doppiatori originali
Miyu Irino: Akito Hyūga
Maaya Sakamoto: Leila Malcal
Satoshi Hino: Ryō Sayama
Yoshitsugu Matsuoka: Yukiya Naruse
Yōko Hikasa: Ayano Kōsaka
Masaya Matsukaze: Shin Hyūga Shaing
Mariya Ise: Jean Rowe
Takuma Terashima: Ashley Ashra
Jun Fukuyama: Julius Kingsley
Takahiro Sakurai: Suzaku Kururugi
Doppiatori italiani
Federico Viola: Akito Hyūga
Emanuela Pacotto: Leila Malcal
Roger Mantovani: Ryō Sayama
Federico Zanandrea: Yukiya Naruse
Deborah Morese: Ayano Kōsaka
Alessandro Zurla: Shin Hyūga Shaing
Ludovica De Caro Jean Rowe
Max Di Benedetto: Ashley Ashra
Massimiliano Alto: Julius Kingsley
Davide Perino: Suzaku Kururugi
Episodi
Yokuryū wa maiorita - Il Wyvern si è posato (4 agosto 2012)
Hikisakareshi Yokuryū - Il Wyvern lacerato (14 settembre 2013)
Kagayaku mono ten yori otsu - Ciò che riluce, dal cielo ricade (2 maggio 2015)
Nikushimi no kioku kara - Dai Ricordi dell'odio (4 luglio 2015)
Itoshiki monotachi e - Alle persone più care (6 febbraio 2016)

Report
Spoiler for Hiden:
General
Complete name                            : Code Geass - Akito The Exiled 04 [BDRip XviD AC3 ITA].avi
Format                                   : AVI
Format/Info                              : Audio Video Interleave
File size                                : 956 MiB
Duration                                 : 1 h 0 min
Overall bit rate                         : 2 227 kb/s
Movie name                               : Zero-Lelouch
Writing application                      : Lavf58.77.100

Video
ID                                       : 0
Format                                   : MPEG-4 Visual
Format profile                           : Simple@L3
Format settings, BVOP                    : No
Format settings, QPel                    : No
Format settings, GMC                     : No warppoints
Format settings, Matrix                  : Default (H.263)
Codec ID                                 : XVID
Codec ID/Hint                            : XviD
Duration                                 : 1 h 0 min
Bit rate                                 : 1 577 kb/s
Width                                    : 720 pixels
Height                                   : 406 pixels
Display aspect ratio                     : 16:9
Original display aspect ratio            : 16:9
Frame rate                               : 23.976 (24000/1001) FPS
Color space                              : YUV
Chroma subsampling                       : 4:2:0
Bit depth                                : 8 bits
Scan type                                : Progressive
Compression mode                         : Lossy
Bits/(Pixel*Frame)                       : 0.225
Stream size                              : 677 MiB (71%)
Writing library                          : XviD 69

Audio
ID                                       : 1
Format                                   : AC-3
Format/Info                              : Audio Coding 3
Codec ID                                 : 00002000-0000-0010-8000-00AA00389B71
Duration                                 : 1 h 0 min
Bit rate                                 : 640 kb/s
Channel(s)                               : 6 channels
Channel layout                           : L R C LFE Ls Rs
Sampling rate                            : 48.0 kHz
Bit depth                                : 16 bits
Compression mode                         : Lossy
Stream size                              : 275 MiB (29%)
Interleave, duration                     : 32  ms (0.77 video frame)

Screenshots
Spoiler for Hiden:



Download

Easybytez
Codice:
Only registered users can see contents. Please click here to Register or Login.
Ddownload
Codice:
Only registered users can see contents. Please click here to Register or Login.

Per supportare il mio lavoro abbonati o rinnova il premium con i miei referral
Referral Easybytez
Per supportare il mio lavoro abbonati o rinnova il premium con i miei referral
Referral Easybytez
Referral Nitroflare