Autore Topic: I Simpson - I Corti (1988) DVDRip ENG Sub ITA  (Letto 54 volte)

0 Utenti e 1 Visitatore stanno visualizzando questo topic.

Offline Zero

  • Uploader
  • Hero Member
  • *
  • Post: 588
  • Karma: +0/-0
I Simpson - I Corti (1988) DVDRip ENG Sub ITA
« il: Settembre 14, 2020, 04:25:59 pm »


I cortometraggi de I Simpson, noti anche come I corti, sono una serie di cortometraggi animati di un minuto che andarono in onda nel varietà statunitense The Tracey Ullman Show per tre stagioni, dal 1987 al 1989, prima che i protagonisti finissero nel loro proprio show da prima serata, la famosa serie animata chiamata I Simpson.

Trama:
I corti dei Simpson è una serie di cortometraggi animati di un minuto che andò in onda nel varietà statunitense The Tracey Ullman Show per tre stagioni, prima che i protagonisti finissero nel loro proprio show da prima serata, la famosa serie animata chiamata I Simpson. I corti furono creati dal cartoonist Matt Groening in collaborazione con James L. Brooks. All'inizio Groening aveva pensato di trasportare sul piccolo schermo la sua striscia a fumetti Life in Hell, ma quando realizzò che ciò avrebbe comportato la rescissione dei diritti di pubblicazione per quest'ultima opera, decise di prendere un'altra strada.[1] Frettolosamente ebbe l'idea di delineare come protagonista dei corti la sua versione di una famiglia disfunzionale, e diede ai personaggi lo stesso nome di quello dei suoi familiari[1]: il personaggio di Homer era il padre di Groening, Marge sua madre, Bart era basato su Groening stesso (Matt, ma fu scelto come nome l'anagramma di "brat" che in inglese vuol dire 'monello'), Lisa e Maggie alle sue due sorelle più piccole. Anche se nel primo corto: Good Night, venivano rivelati solo i nomi di Bart e Lisa, mentre quelli di Homer, Marge, Maggie e il cognome della famiglia vennero chiariti più avanti.

Lo storyboard e la sceneggiatura dei corti fu curata da Matt Groening. La famiglia era rozzamente disegnata, poiché Groening aveva sottoposto schizzi di base agli animatori, supponendo che li avrebbero 'puliti'; invece semplicemente ricalcarono i suoi disegni.[1] L'animazione fu prodotta in America agli studi Klasky Csupo,[4] con Wesley Archer, David Silverman, e Bill Kopp come animatori per la prima stagione. Dopo la stagione uno, i corti furono animati da Archer e Silverman. Georgie Peluse era il colorista e la persona che decise di colorare di giallo la pelle dei personaggi.

Titolo Originale: The Simpsons
Autore: Matt Groening
Regia: Matt Groening
Anno: 1988
Genere: Sitcom, Demenziale
Numero Episodi: 48
Lingue Audio: Inglese
Sottotitoli: Italiano

Report
Spoiler for Hiden:
General
Complete name                            : 1x01 - MG01 - Buona notte.avi
Format                                   : AVI
Format/Info                              : Audio Video Interleave
File size                                : 10.8 MiB
Duration                                 : 1 min 49 s
Overall bit rate                         : 831 kb/s
Writing library                          : VirtualDub build 16297/release

Video
ID                                       : 0
Format                                   : MPEG-4 Visual
Format settings                          : BVOP1
Format settings, BVOP                    : 1
Format settings, QPel                    : No
Format settings, GMC                     : No warppoints
Format settings, Matrix                  : Default (H.263)
Muxing mode                              : Packed bitstream
Codec ID                                 : DX50
Codec ID/Hint                            : DivX 5
Duration                                 : 1 min 49 s
Bit rate                                 : 595 kb/s
Nominal bit rate                         : 768 kb/s
Width                                    : 352 pixels
Height                                   : 240 pixels
Display aspect ratio                     : 3:2
Frame rate                               : 29.970 (30000/1001) FPS
Standard                                 : NTSC
Color space                              : YUV
Chroma subsampling                       : 4:2:0
Bit depth                                : 8 bits
Scan type                                : Progressive
Compression mode                         : Lossy
Bits/(Pixel*Frame)                       : 0.235
Stream size                              : 7.74 MiB (72%)
Writing library                          : DivX 5.0.5 (UTC 2003-04-24)

Audio
ID                                       : 1
Format                                   : MPEG Audio
Format version                           : Version 1
Format profile                           : Layer 3
Codec ID                                 : 55
Codec ID/Hint                            : MP3
Duration                                 : 1 min 49 s
Bit rate mode                            : Constant
Bit rate                                 : 224 kb/s
Channel(s)                               : 2 channels
Sampling rate                            : 44.1 kHz
Compression mode                         : Lossy
Stream size                              : 2.91 MiB (27%)
Alignment                                : Split across interleaves
Interleave, duration                     : 33  ms (1.00 video frame)
Interleave, preload duration             : 500  ms

Screenshots
Spoiler for Hiden:



Download

Easybytez - Katfile
[hide]
Codice:
Only registered users can see contents. Please click here to Register or Login.[/code][/hide]


Per supportare il mio lavoro abbonati o rinnova il premium con i miei referral
Referral Easybytez
Referral Nitroflare
Referral Rapidgator
Referral Katfile
Per supportare il mio lavoro abbonati o rinnova il premium con i miei referral
Referral Easybytez
Referral Nitroflare