Autore Topic: Kimba - La Leggenda Del Leone Bianco (1997) DVDRip MP3 ITA JAP  (Letto 62 volte)

0 Utenti e 1 Visitatore stanno visualizzando questo topic.

Offline Zero

  • Uploader
  • Hero Member
  • *
  • Post: 703
  • Karma: +0/-0
Kimba - La Leggenda Del Leone Bianco (1997) DVDRip MP3 ITA JAP
« il: Settembre 14, 2020, 09:04:18 pm »


Kimba - La leggenda del leone bianco è un film d'animazione del 1997 diretto da Yoshio Takeuchi.

Trama
Kimba (il cui nome originale è Leo), è qui già diventato "re della foresta" e dovrà salvaguardare il suo regno da un gruppo di uomini senza scrupoli che vogliono impossessarsi delle pietre "Luce di Luna". Kimba dovrà quindi lottare per proteggere ciò che ama, con il rischio di perdere tutto.

Titolo originale   Gekijoban Janguru Taitei
Lingua originale   Giapponese
Paese di produzione   Giappone
Anno   1997
Durata   100 min
Rapporto   2,35:1
Genere   Avventura  Drammatico  Fantastico
Regia   Yoshio Takezuchi
Soggetto   Osamu Tezuka
Sceneggiatura   Yoshio Takezuchi
Produttore   Yoshio Takezuchi
Casa di produzione   Shochiku, Tezuka Productions Films
Effetti speciali   Shochiku, Tezuka Productions Films
Musiche   Isao Tomita
Sfondi   Londra, Grande Valle del Rift in Uganda (qui chiamata giungla di Baejalous o di Panja), Monte Luna.
Doppiatori originali
Masame Tsukayama: Kimba
Chieko Baishō: Lia
Mifuyu Hiiragi: Lune
Hekiru Shiina: Rukyo
Yasunori Matsumoto: Mandy
Naoki Tatsuka: Tommy
Kaneta Kimotsuki: Coco
Danshi Tatekawa: Hammegg O'Hara
Kei Tani: Professor Mustach
Kousei Tomita: Lemonade
Ranran Suzuki: Bizo
Masato Ibu: Pagula
Tomoko Nakajima: Mary
Doppiatori italiani
Claudio Moneta: Kimba
Lisa Mazzotti: Lia
Giulia Franzoso: Lune
Giovanna Papandrea: Rukyo
Mario Scarabelli: Mandy
Luca Sandri: Tommy
Riccardo Peroni: Coco
Diego Sabre: Hammegg O'Hara
Enrico Bertorelli: Professor Mustach
Davide Garbolino: Lemonade
Monica Bonetto: Bizo
Marco Balbi: Pagula
Marco Balzarotti: Dottor Pruss
Stefania Patruno: Madre Terra
Daniele Demma: Jack
Cinzia Massironi: Mary
Irene Scalzo: Cicogna
Daniele Demma, Marco Balzarotti e Luca Semeraro: Scagnozzi di Hammegg

Report
Spoiler for Hiden:
General
Complete name                            : Kimba - La Leggenda Del Leone Bianco.avi
Format                                   : AVI
Format/Info                              : Audio Video Interleave
File size                                : 1.30 GiB
Duration                                 : 1 h 38 min
Overall bit rate                         : 1 874 kb/s
Writing application                      : VirtualDubMod 1.5.10.2 (build 2540/release)
Writing library                          : VirtualDubMod build 2540/release

Video
ID                                       : 0
Format                                   : VC-1
Codec ID                                 : WMV3
Codec ID/Info                            : Windows Media Video 9
Codec ID/Hint                            : WMV3
Duration                                 : 1 h 38 min
Bit rate                                 : 1 541 kb/s
Width                                    : 704 pixels
Height                                   : 396 pixels
Display aspect ratio                     : 16:9
Frame rate                               : 23.976 (24000/1001) FPS
Bit depth                                : 8 bits
Compression mode                         : Lossy
Bits/(Pixel*Frame)                       : 0.230
Stream size                              : 1.06 GiB (82%)

Audio #1
ID                                       : 1
Format                                   : MPEG Audio
Format version                           : Version 1
Format profile                           : Layer 3
Format settings                          : Joint stereo
Codec ID                                 : 55
Codec ID/Hint                            : MP3
Duration                                 : 1 h 38 min
Bit rate mode                            : Constant
Bit rate                                 : 160 kb/s
Channel(s)                               : 2 channels
Sampling rate                            : 48.0 kHz
Compression mode                         : Lossy
Stream size                              : 113 MiB (9%)
Alignment                                : Aligned on interleaves
Interleave, duration                     : 42  ms (1.00 video frame)
Interleave, preload duration             : 504  ms

Audio #2
ID                                       : 2
Format                                   : MPEG Audio
Format version                           : Version 1
Format profile                           : Layer 3
Format settings                          : Joint stereo
Codec ID                                 : 55
Codec ID/Hint                            : MP3
Duration                                 : 1 h 38 min
Bit rate mode                            : Constant
Bit rate                                 : 160 kb/s
Channel(s)                               : 2 channels
Sampling rate                            : 48.0 kHz
Compression mode                         : Lossy
Stream size                              : 113 MiB (9%)
Alignment                                : Aligned on interleaves
Interleave, duration                     : 42  ms (1.00 video frame)
Interleave, preload duration             : 504  ms

Screenshots
Spoiler for Hiden:



Download

Easybytez - Katfile
[hide]
Codice:
Only registered users can see contents. Please click here to Register or Login.[/hide]


Per supportare il mio lavoro abbonati o rinnova il premium con i miei referral
Referral Easybytez
Referral Nitroflare
Referral Rapidgator
Referral Katfile
Per supportare il mio lavoro abbonati o rinnova il premium con i miei referral
Referral Easybytez
Referral Nitroflare