Autore Topic: Escaflowne - The Movie (2000) BDRip XviD AC3 ITA  (Letto 36 volte)

0 Utenti e 1 Visitatore stanno visualizzando questo topic.

Offline Zero

  • Uploader
  • Hero Member
  • *
  • Post: 703
  • Karma: +0/-0
Escaflowne - The Movie (2000) BDRip XviD AC3 ITA
« il: Settembre 13, 2020, 10:44:42 pm »


Escaflowne - The Movie è un film anime del 2000, creato come un universo alternativo agli eventi della serie tv I cieli di Escaflowne. Animato dalla Sunrise e da Bones, è stato sviluppato con il titolo provvisorio Escaflowne: A Girl in Gaea, ma in seguito è stato pubblicato semplicemente come Escaflowne o Escaflowne - The Movie.

Trama
La storia del film è simile a quella della serie televisiva, ma è ovviamente raccontata in modo da essere contenuta in un'ora e mezza. Molti dei personaggi introdotti nella serie TV sono presenti anche nel film, sebbene in alcuni casi il loro design sia completamente diverso, al punto da essere difficilmente riconducibili alla loro controparte televisiva. L'unico personaggio introdotto appositamente nel film è Sora, una consigliera di Folken Fanel.

Titolo originale   Escaflowne The Movie
Lingua originale   Giapponese
Paese di produzione   Giappone
Anno   2000
Durata   81 min
Genere: Avventura, Fantastico, Fantasy, Mecha
Regia   Kazuki Akane
Soggetto   Hajime Yatate, Shōji Kawamori
Sceneggiatura   Kazuki Akane, Ryota Yamaguchi
Produttore   Hiroshi Hasegawa, Yoko Matsushita
Produttore esecutivo   Ken Iyadomi, Min Ki Kim, Ryohei Tsunoda, Tae Sub Chon, Takayuki Yoshii
Casa di produzione   Sunrise
Fotografia   Kazunori Okeda
Musiche   Hajime Mizoguchi, Yōko Kanno
Character design   Nobuteru Yūki

Report
Spoiler for Hiden:
General
Complete name                            : Escaflowne - The Movie [BDRip XviD AC3 ITA].avi
Format                                   : AVI
Format/Info                              : Audio Video Interleave
Format profile                           : OpenDML
File size                                : 1.66 GiB
Duration                                 : 1 h 35 min
Overall bit rate                         : 2 493 kb/s
Movie name                               : By Zero-Lelouch
Writing application                      : Lavf58.53.100

Video
ID                                       : 0
Format                                   : MPEG-4 Visual
Format profile                           : Simple@L3
Format settings, BVOP                    : No
Format settings, QPel                    : No
Format settings, GMC                     : No warppoints
Format settings, Matrix                  : Default (H.263)
Codec ID                                 : XVID
Codec ID/Hint                            : XviD
Duration                                 : 1 h 35 min
Bit rate                                 : 1 842 kb/s
Width                                    : 720 pixels
Height                                   : 398 pixels
Display aspect ratio                     : 16:9
Original display aspect ratio            : 16:9
Frame rate                               : 23.976 (24000/1001) FPS
Color space                              : YUV
Chroma subsampling                       : 4:2:0
Bit depth                                : 8 bits
Scan type                                : Progressive
Compression mode                         : Lossy
Bits/(Pixel*Frame)                       : 0.268
Stream size                              : 1.23 GiB (74%)
Writing library                          : XviD 69

Audio
ID                                       : 1
Format                                   : AC-3
Format/Info                              : Audio Coding 3
Duration                                 : 1 h 35 min
Bit rate                                 : 640 kb/s
Channel(s)                               : 6 channels
Channel layout                           : L R C LFE Ls Rs
Sampling rate                            : 48.0 kHz
Bit depth                                : 16 bits
Compression mode                         : Lossy
Stream size                              : 437 MiB (26%)
Interleave, duration                     : 32  ms (0.77 video frame)

Screenshots
Spoiler for Hiden:



Download

Easybytez - Katfile
[hide]
Codice:
Only registered users can see contents. Please click here to Register or Login.[/hide]


Per supportare il mio lavoro abbonati o rinnova il premium con i miei referral
Referral Easybytez
Referral Nitroflare
Referral Rapidgator
Referral Katfile
Per supportare il mio lavoro abbonati o rinnova il premium con i miei referral
Referral Easybytez
Referral Nitroflare